Uncle.Thomas.Accounting.for.the.Days.2019.1080p.WEBRip.x264.AAC.H...

seeders: 13
leechers: 2
updated:
Added by m1337e in Other


ᕦ( ▨̅ ͜▨̅ )ᕥ SPECIAL DEAL - OFFER ᕦ( ▨̅ ͜▨̅ )ᕥ
strongly advises you to use Nord while downloading torrents.
Nord is the safest on the market, and the fastest as well.
No IP Log is saved using Nord, avoid other providers and choose the safest one.
Click here and buy Nord it's on rebates today!
We were able to verify your IP: 2a02:29b8:dc01:1630::4b2.
If we can do that, others can too, protect your privacy with Nord.
is trying the best for you!
ᕦ( ▨̅ ͜▨̅ )ᕥ SPECIAL DEAL - OFFER ᕦ( ▨̅ ͜▨̅ )ᕥ


Description

Release: Uncle.Thomas.Accounting.for.the.Days.2019.1080p.WEBRip.x264.AAC.HORiZON-ArtSubs

 

IMDB: https://www.imdb.com/title/tt10498098

Subtitle: None

Plot: From Regina's personal and visual memories, a tribute to her uncle Thomas, a humble man with a simple and anonymous life. This is her acknowledgment how one does not have to be somebody to become exceptional in our life.

Complete name: Uncle.Thomas.Accounting.for.the.Days.2019.1080p.WEBRip.x264.AAC.HORiZON-ArtSubs
Format                      : MPEG-4
Format profile              : Base Media
Codec ID                    : isom (isom/iso2/avc1/mp41)
File size                   : 389 MiB
Duration                    : 13 min 3 s
Overall bit rate            : 4 159 kb/s
Movie name                  : Uncle Thomas: Accounting for The Days
Performer                   : NFB
Recorded date               : 2019
Writing application         : Lavf58.18.104
Comment                     : https://www.youtube.com/watch?v=CCAxVIq8cOc

Video
ID                          : 1
Format                      : AVC
Format/Info                 : Advanced Video Codec
Format profile              : [email protected] 
Format settings             : CABAC / 3 Ref Frames
Format settings, CABAC      : Yes
Format settings, ReFrames   : 3 frames
Codec ID                    : avc1
Codec ID/Info               : Advanced Video Coding
Duration                    : 13 min 3 s
Bit rate                    : 4 026 kb/s
Width                       : 1 920 pixels
Height                      : 1 080 pixels
Display aspect ratio        : 16:9
Frame rate mode             : Constant
Frame rate                  : 23.976 (24000/1001) FPS
Color space                 : YUV
Chroma subsampling          : 4:2:0
Bit depth                   : 8 bits
Scan type                   : Progressive
Bits/(Pixel*Frame)          : 0.081
Stream size                 : 376 MiB (97%)
Title                       : ISO Media file produced by Google Inc.
Color range                 : Limited
Color primaries             : BT.709
Transfer characteristics    : BT.709
Matrix coefficients         : BT.709

Audio
ID                          : 2
Format                      : AAC
Format/Info                 : Advanced Audio Codec
Format profile              : LC
Codec ID                    : mp4a-40-2
Duration                    : 13 min 3 s
Bit rate mode               : Constant
Bit rate                    : 128 kb/s
Channel(s)                  : 2 channels
Channel positions           : Front: L R
Sampling rate               : 44.1 kHz
Frame rate                  : 43.066 FPS (1024 SPF)
Compression mode            : Lossy
Stream size                 : 12.0 MiB (3%)
Title                       : ISO Media file produced by Google Inc.
Default                     : Yes
Alternate group             : 1


SCREENSHOTS:

 
 
 



Sharing Widget


Download torrent
Size: 388.5 MB
seeders:13
leechers:2
Uncle.Thomas.Accounting.for.the.Days.2019.1080p.WEBRip.x264.AAC.H... - (407371776 Bytes)



To share this torrent use the code below and insert it into comments, status messages, forum posts or your signature.

Torrent: Uncle.Thomas.Accounting.for.the.Days.2019.1080p.WEBRip.x264.AAC.H...

Trackers

tracker name
udp://tracker.opentrackr.org:1337/announce
udp://tracker.coppersurfer.tk:6969/announce
udp://tracker.leechers-paradise.org:6969/announce
udp://tracker.zer0day.to:1337/announce
udp://tracker.zer0day.to:1337/announce
udp://tracker.leechers-paradise.org:6969/announce
udp://coppersurfer.tk:6969/announce
µTorrent compatible trackers list

Locations

name
KickassTorrents
Torrent hash: 8F3CF77E5FFE80318CAE6EDCCD0347A0BDC7E043

ᕦ( ▨̅ ͜▨̅ )ᕥ SPECIAL DEAL - OFFER ᕦ( ▨̅ ͜▨̅ )ᕥ
strongly advises you to use Nord while downloading torrents.
Nord is the safest on the market, and the fastest as well.
No IP Log is saved using Nord, avoid other providers and choose the safest one.
Click here and buy Nord it's on rebates today!
We were able to verify your IP: 2a02:29b8:dc01:1630::4b2.
If we can do that, others can too, protect your privacy with Nord.
is trying the best for you!
ᕦ( ▨̅ ͜▨̅ )ᕥ SPECIAL DEAL - OFFER ᕦ( ▨̅ ͜▨̅ )ᕥ


All Comments

*comments box temporarily disabled*
Report a bug