Vijetha 2020 Hindi Dubbed 1080p Web-DL x264 AAC [TMB]

seeders: 5
leechers: 1
updated:
Added by TeamTMB in Other


ᕦ( ▨̅ ͜▨̅ )ᕥ SPECIAL DEAL - OFFER ᕦ( ▨̅ ͜▨̅ )ᕥ
strongly advises you to use Nord while downloading torrents.
Nord is the safest on the market, and the fastest as well.
No IP Log is saved using Nord, avoid other providers and choose the safest one.
Click here and buy Nord it's on rebates today!
We were able to verify your IP: 2a02:29b8:dc01:1630::4b2.
If we can do that, others can too, protect your privacy with Nord.
is trying the best for you!
ᕦ( ▨̅ ͜▨̅ )ᕥ SPECIAL DEAL - OFFER ᕦ( ▨̅ ͜▨̅ )ᕥ


Description

 

 

 

          

 

General
Complete name : Vijetha 2020 Hindi Dubbed 1080p Web-DL x264 AAC [TMB].mkv
Format : Matroska
Format version : Version 4
File size : 1.35 GiB
Duration : 1 h 55 min
Overall bit rate : 1 671 kb/s

Video
Format : AVC
Format/Info : Advanced Video Codec
Format profile : [email protected] 
Format settings : CABAC / 3 Ref Frames
Format settings, CABAC : Yes
Format settings, Reference : 3 frames
Codec ID : V_MPEG4/ISO/AVC
Duration : 1 h 55 min
Bit rate : 1 541 kb/s
Width : 1 920 pixels
Height : 1 080 pixels
Display aspect ratio : 16:9
Frame rate mode : Constant
Frame rate : 25.000 FPS
Color space : YUV
Chroma subsampling : 4:2:0
Bit depth : 8 bits
Scan type : Progressive
Bits/(Pixel*Frame) : 0.030
Stream size : 1.24 GiB (92%)

Audio
Format : AAC LC
Format/Info : Advanced Audio Codec Low Complexity
Codec ID : A_AAC-2
Duration : 1 h 55 min
Bit rate : 128 kb/s
Channel(s) : 2 channels
Channel layout : L R
Sampling rate : 44.1 kHz
Frame rate : 43.066 FPS (1024 SPF)
Compression mode : Lossy
Delay relative to video : 12 ms
Stream size : 106 MiB (8%)


Uploaded & Shared by @TMB

Seeding 24x7... Extreme Seeding...  


Enjoy!


Sharing Widget


Download torrent
Size: 1.3 GB
seeders:5
leechers:1
Vijetha 2020 Hindi Dubbed 1080p Web-DL x264 AAC [TMB] - (1395864371 Bytes)



To share this torrent use the code below and insert it into comments, status messages, forum posts or your signature.

Torrent: Vijetha 2020 Hindi Dubbed 1080p Web-DL x264 AAC [TMB]

Trackers

tracker name
udp://tracker.opentrackr.org:1337/announce
udp://p4p.arenabg.com:1337/announce
udp://denis.stalker.upeer.me:6969/announce
https://tracker.vectahosting.eu:2053/announce
udp://tracker.sbsub.com:2710/announce
https://tracker.opentracker.se:443/announce
udp://ipv4.tracker.harry.lu:80/announce
udp://tracker.torrent.eu.org:451/announce
udp://tracker.uw0.xyz:6969/announce
udp://tracker.ds.is:6969/announce
udp://open.demonii.si:1337/announce
udp://retracker.akado-ural.ru:80/announce
udp://tracker.tiny-vps.com:6969/announce
udp://open.stealth.si:80/announce
udp://tracker.zer0day.to:1337/announce
udp://tracker.leechers-paradise.org:6969/announce
udp://coppersurfer.tk:6969/announce
µTorrent compatible trackers list

Locations

name
KickassTorrents
Torrent hash: 31F475E375A3E20CADBB16F488E257F9762B4E66

ᕦ( ▨̅ ͜▨̅ )ᕥ SPECIAL DEAL - OFFER ᕦ( ▨̅ ͜▨̅ )ᕥ
strongly advises you to use Nord while downloading torrents.
Nord is the safest on the market, and the fastest as well.
No IP Log is saved using Nord, avoid other providers and choose the safest one.
Click here and buy Nord it's on rebates today!
We were able to verify your IP: 2a02:29b8:dc01:1630::4b2.
If we can do that, others can too, protect your privacy with Nord.
is trying the best for you!
ᕦ( ▨̅ ͜▨̅ )ᕥ SPECIAL DEAL - OFFER ᕦ( ▨̅ ͜▨̅ )ᕥ


All Comments

*comments box temporarily disabled*
Report a bug